Skip to main content

Toubab Krewe Live at Langerado Festival on 2007-03-10

Audio Preview

etree
Toubab Krewe Live at Langerado Festival on 2007-03-10




Toubab Krewe
March 10, 2007
Langerado Festival - Swamp Tent
Markham Park
Sunrise FL

*** THIS IS A 24-BIT FILESET NOT INTENDED FOR AUDIO CD ***

SOURCE: mbho603a/ka500hn (hypercardioid, DIN) > mp2 > busman t-mod edirol r4 (24/96)
PROCESSING: soundforge 10.0 (tracking, fades) > flac 1.2.1

01
02
03
04
05
06
07
08
09


Collection ToubabKrewe
Band/Artist Toubab Krewe
Venue Langerado Festival
Location Sunrise FL

Source mbho603a/ka500hn (hypercardioid, DIN) > mp2 > busman t-mod edirol r4 (24/96)
Lineage soundforge 10.0 (tracking, fades) > flac 1.2.1
Taped by Peter W. King
Transferred by Peter W. King

Notes

length expanded size cdr WAVE problems fmt ratio filename
0:47.400 27302444 B cxx -- ---xx flac 0.5095 toubabkrewe2007-03-10_mbho_t01.flac
4:44.700 163987244 B cxx -- ---xx flac 0.5896 toubabkrewe2007-03-10_mbho_t02.flac
5:32.800 191692844 B cxx -- ---xx flac 0.5734 toubabkrewe2007-03-10_mbho_t03.flac
8:34.200 296179244 B cxx -- ---xx flac 0.5842 toubabkrewe2007-03-10_mbho_t04.flac
11:35.200 400435244 B cxx -- ---xx flac 0.5879 toubabkrewe2007-03-10_mbho_t05.flac
6:14.700 215827244 B cxx -- ---xx flac 0.5926 toubabkrewe2007-03-10_mbho_t06.flac
6:52.100 237369644 B cxx -- ---xx flac 0.6100 toubabkrewe2007-03-10_mbho_t07.flac
8:48.100 304185644 B cxx -- ---xx flac 0.5764 toubabkrewe2007-03-10_mbho_t08.flac
8:48.100 304185644 B cxx -- ---xx flac 0.5651 toubabkrewe2007-03-10_mbho_t09.flac
61:57.300 2141165196 B 0.5833 (9 files)

comment
Reviews

There are no reviews yet. Be the first one to write a review.
SIMILAR ITEMS (based on metadata)
eye
Title
Date Archived
Creator
Toubab Krewe
by Toubab Krewe
etree
eye 68
favorite 0
comment 0
Source: mbho 603a/ka500hn (hypercardioid, DIN) > mp2 > busman t-mod edirol r4 (24/96)
Toubab Krewe
by Toubab Krewe
etree
eye 783
favorite 1
comment 4
favoritefavoritefavoritefavoritefavorite ( 4 reviews )
Source: schoeps mk4v (ORTF) > vms02ib > busman t-mod edirol r4 (24/96)
Toubab Krewe
by Toubab Krewe
etree
eye 851
favorite 0
comment 0
Source: Schoeps MK4(DIN)>kcy>Sonosax SX-M2/LS>Hydra Silver XLR Interconnects >Sound Devices 722(24/96)
Toubab Krewe
by Toubab Krewe
etree
eye 1,103
favorite 0
comment 1
favoritefavoritefavoritefavoritefavorite ( 1 reviews )
Source: cmc64(xy)>v3>hdp2
Toubab Krewe
by Toubab Krewe
etree
eye 2,073
favorite 0
comment 1
favoritefavoritefavoritefavoritefavorite ( 1 reviews )
Source: onstage, DFC, DPA 4022(ortf)>AERCO MP2>Marantz PMD-671 (24/48)
Toubab Krewe
by Toubab Krewe
etree
eye 120
favorite 0
comment 0
Source: neumann km140 > edirol R4 (oade basic mod)
Toubab Krewe
etree
eye 547
favorite 0
comment 0
Source: Oktava Mk012s (Cards, ORTF) Clamped to balcony railing, center stage -> Warm Mod Edirol Ua5 -> Monster Optical -> Nomad JB3 (WAV 44.1k)
Toubab Krewe
by Toubab Krewe
etree
eye 2,294
favorite 2
comment 1
favoritefavoritefavoritefavoritefavorite ( 1 reviews )
Source: Stage-lip, 2' high, DFC -- Neumann ak20/ak40 > lc3 > km100 > Lunatec V3 (on-the-fly midside, +18 mid/+25 side, analog out) > 722 @ 24/96
Toubab Krewe
by Toubab Krewe
etree
eye 232
favorite 0
comment 0
Toubab Krewe
etree
eye 313
favorite 0
comment 1
( 1 reviews )
Source: oktava mk-012(dorsey mod/busman audio)> bus2+mod ua-5> s/pdif >iriver h120(rockbox)